首页 > 二次世界 > 正文

HD 1080p from HULU JAPAN.

General Unique ID                      : 263756653628274702101510303439692748795 (0xC66DAF08A0D50479548D9CFC89BFD7FB) Complete name                  : Kindaichi.Shounen.no.Jikenbo.EP02.1080p.HULU.WEB-DL.AAC2.0.H.264-MagicStar.mkv Format                         : Matroska Format version                 : Version 4 File size                      : 1.30 GiB Duration                       : 45 min 37 s Overall bit rate               : 4 078 kb/s Encoded date                   : UTC 2022-05-10 11:15:40 Writing application            : mkvmerge v50.0.0 ('Awakenings') 64-bit Writing library                : libebml v1.4.0 + libmatroska v1.6.2 Cover                          : Yes Attachments                    : cover.png  Video ID                             : 1 Format                         : AVC Format/Info                    : Advanced Video Codec Format profile                 : [email protected] Format settings                : CABAC / 4 Ref Frames Format settings, CABAC         : Yes Format settings, Reference fra : 4 frames Codec ID                       : V_MPEG4/ISO/AVC Duration                       : 45 min 37 s Bit rate                       : 3 950 kb/s Width                          : 1 920 pixels Height                         : 1 080 pixels Display aspect ratio           : 16:9 Frame rate mode                : Constant Frame rate                     : 29.970 (29970/1000) FPS Original frame rate            : 29.970 (30000/1001) FPS Color space                    : YUV Chroma subsampling             : 4:2:0 Bit depth                      : 8 bits Scan type                      : Progressive Bits/(Pixel*Frame)             : 0.064 Stream size                    : 1.26 GiB (97%) Default                        : Yes Forced                         : No Color range                    : Limited Color primaries                : BT.709 Transfer characteristics       : BT.709 Matrix coefficients            : BT.709  Audio ID                             : 2 Format                         : AAC LC Format/Info                    : Advanced Audio Codec Low Complexity Codec ID                       : A_AAC-2 Duration                       : 45 min 37 s Bit rate                       : 125 kb/s Channel(s)                     : 2 channels Channel layout                 : L R Sampling rate                  : 48.0 kHz Frame rate                     : 46.875 FPS (1024 SPF) Compression mode               : Lossy Stream size                    : 40.9 MiB (3%) Language                       : Japanese Default                        : Yes Forced                         : No

[MagicStar] 妖怪合租屋-归来怪- / 妖怪シェアハウス-帰ってきたん怪- EP05 [WEBDL] [1080p]【生】【附日字】

猜你喜欢
文章评论已关闭!
picture loss