• 搜索
  • 百度
  • google
  • 站内搜索

动漫

[MagicStar] 石子和羽男 番外篇 盐介与甘实 -荞麦出锅前是探案时间- / 塩介と甘実 -蕎麦ができるまで探偵- EP06 [WEBDL] [720p] [PARAVI]【生】

  • 更新日期:2022-09-22
  • 查看次数:1

HD 720p from Paravi. The original story of “Ishiko to Haneo -Sonna Koto de Uttaemasu?-”.

General Unique ID                      : 263301112281424258857594144485877969307 (0xC615F31C7AFA095DEE544B341D07719B) Complete name                  : Shiosuke.to.Amami.Soba.ga.Dekiru.made.Tantei.EP06.720p.PARAVI.WEB-DL.AAC2.0.H.264-MagicStar.mkv Format                         : Matroska Format version                 : Version 4 File size                      : 163 MiB Duration                       : 9 min 5 s Overall bit rate               : 2 498 kb/s Encoded date                   : UTC 2022-09-21 17:52:24 Writing application            : mkvmerge v50.0.0 ('Awakenings') 64-bit Writing library                : libebml v1.4.0 + libmatroska v1.6.2 Cover                          : Yes Attachments                    : cover.png  Video ID                             : 1 Format                         : AVC Format/Info                    : Advanced Video Codec Format profile                 : [email protected] Format settings                : CABAC / 4 Ref Frames Format settings, CABAC         : Yes Format settings, ReFrames      : 4 frames Codec ID                       : V_MPEG4/ISO/AVC Duration                       : 9 min 5 s Bit rate                       : 2 356 kb/s Width                          : 1 280 pixels Height                         : 720 pixels Display aspect ratio           : 16:9 Frame rate mode                : Constant Frame rate                     : 29.970 (29970/1000) FPS Original frame rate            : 29.970 (30000/1001) FPS Color space                    : YUV Chroma subsampling             : 4:2:0 Bit depth                      : 8 bits Scan type                      : Progressive Bits/(Pixel*Frame)             : 0.085 Stream size                    : 153 MiB (94%) Default                        : Yes Forced                         : No Color range                    : Limited Color primaries                : BT.709 Transfer characteristics       : BT.709 Matrix coefficients            : BT.709  Audio ID                             : 2 Format                         : AAC LC Format/Info                    : Advanced Audio Codec Low Complexity Codec ID                       : A_AAC-2 Duration                       : 9 min 5 s Bit rate                       : 125 kb/s Channel(s)                     : 2 channels Channel layout                 : L R Sampling rate                  : 48.0 kHz Frame rate                     : 46.875 FPS (1024 SPF) Compression mode               : Lossy Stream size                    : 8.16 MiB (5%) Language                       : Japanese Default                        : Yes Forced                         : No